Loading...
Loading...

Trasgredire - Cheeky - Tinto Brass (2000) Tra(sgre)dire [XviD - Italian English Ac3 - Sub Eng] Erotico MIRCrew

seeders: 437
leechers: 483
Trasgredire - Cheeky - Tinto Brass (2000) Tra(sgre)dire [XviD - Italian English Ac3 - Sub Eng] Erotico MIRCrew magnet link

Info Hash: 999E4EE86177489E9DF305B237293B2E324F5F25
Loading...
Trasgredire - Cheeky - Tinto Brass (2000) Tra(sgre)dire [XviD - Italian English Ac3 - Sub Eng] Erotico MIRCrew
  • Downloads 58
  • Added 1 year
  • Quality Good
  • Torrent ID 42866
  • Note if .torrent file deleted click magnet below
  • Download Magnet
Torrent Info:
• You can easily download Trasgredire - Cheeky - Tinto Brass (2000) Tra(sgre)dire [XviD - Italian English Ac3 - Sub Eng] Erotico MIRCrew Torerent to your PC, MAC, Tablet, Mobile or any other devices.
• HD Quality Torrent Trasgredire - Cheeky - Tinto Brass (2000) Tra(sgre)dire [XviD - Italian English Ac3 - Sub Eng] Erotico MIRCrew
• Your Support Keep WatchTorrentMovie.Us alive.

Torrent Files

Trasgredire - Cheeky - Tinto Brass (2000) Tra(sgre)dire [XviD - Italian English Ac3 - Sub Eng] Erotico MIRCrew (Size: 1.36 GB)
  Trasgredire - Cheeky - Tinto Brass (2000) Tra(sgre)dire [XviD - Italian English Ac3 - Sub Eng] Erotico MIRCrew 1.36 GB

Torrent Description

Torrent Description

Trasgredire - Cheeky - Tinto Brass (2000) Tra(sgre)dire [XviD - Italian English Ac3 - Sub Eng] Erotico MIRCrew



http://imageshack.us/a/img443/3039/mircreworiginalrosa.gif

*********************************************

image
Tra(sgre)direTrasgredire - Cheeky Tinto Brass (2000)

image

Titolo originale Tra(sgre)dire
Lingua originale Italiano
Paese di produzione Italia
Anno 2000
Durata 92 min
Genere erotico
Regia Tinto Brass
Soggetto Tinto Brass
Sceneggiatura Tinto Brass, Carla Cipriani, Nicolaj Pennestri, Silvia Rossi, Massimiliano Zanin
Produttore Pino Gargiulo
Casa di produzione C.R.C.
Distribuzione (Italia) Lion Pictures
Fotografia Massimo Di Venanzo
Montaggio Tinto Brass
Musiche Pino Donaggio
Scenografia Carlo De Marino
Costumi Stefano Giovani, Cesare Tanoni

image

image

image


Yuliya Mayarchuk: Carla
Jarno Berardi: Matteo
Francesca Nunzi: Moira
Max Parodi: Mario
Mauro Lorenz: Bernard
Vittorio Attene: Luca
Antonio Salines: Padre
Leila Carli: Nina

image

image

image

image

Carla, ventenne veneziana, entra in un’agenzia immobiliare a Londra: cerca un appartamento da affittare per Matteo, lo studente di cui è innamorata e che al più presto la raggiungerà

nella capitale britannica. Moira, la titolare dell’agenzia, colpita dall’avvenenza di Carla, la invita a casa propria. Carla tace tutto a Matteo che, preso da dubbi e gelosie, le dice per

telefono che intende rinunciare al viaggio a Londra. Carla, molto delusa, per reazione accetta anche la corte di Mario, l’ex marito di Moira, nel corso di una festa del tutto particolare.

A Venezia Matteo però non resiste e parte senza dire niente. Quando di sorpresa raggiunge Carla a Londra, sfoga la sua rabbia ma alla fine, trascinato da lei e dalle persone che Carla ha

conosciuto, capisce che, se il saperla con un altro lo fa impazzire di gelosia...........................


Storiline:

In London, the Venetian Carla Borin is searching an apartment to share with her beloved boyfriend Matteo. She meets the lesbian real estate agent Moira and rents a large apartment. When

the jealous Matteo finds some pictures and letters from her former lover Bernard in Venice, he hangs up the phone and the upset and amoral Carla has a brief affair with Moira and

intercourse with an acquaintance in a party. When Matteo comes to London, he concludes that his lust for Carla is more important than his jealousy and her behavior..........

image

image

image


image

image


General
Complete name : F:\Trasgredire - Cheeky - Tinto Brass (2000).Ita.Eng.Sub.Eng.MIRCrew\Trasgredire - Cheeky - Tinto Brass (2000).Ita.Eng.Sub.Eng.MIRCrew.avi
Format : AVI
Format/Info : Audio Video Interleave
File size : 1.36 GiB
Duration : 1h 30mn
Overall bit rate : 2 151 Kbps
Writing application : VirtualDubMod 1.5.10.2 (build 2540/release)
Writing library : VirtualDubMod build 2540/release

Video
ID : 0
Format : MPEG-4 Visual
Format profile : [email protected]
Format settings, BVOP : Yes
Format settings, QPel : No
Format settings, GMC : No warppoints
Format settings, Matrix : Default (H.263)
Codec ID : XVID
Codec ID/Hint : XviD
Duration : 1h 30mn
Bit rate : 1 497 Kbps
Width : 720 pixels
Height : 400 pixels
Display aspect ratio : 16:9
Frame rate : 23.976 fps
Color space : YUV
Chroma subsampling : 4:2:0
Bit depth : 8 bits
Scan type : Progressive
Bits/(Pixel*Frame) : 0.217
Stream size : 969 MiB (70%)

Audio #1
ID : 1
Format : AC-3
Format/Info : Audio Coding 3
Mode extension : CM (complete main)
Codec ID : 2000
Duration : 1h 30mn
Bit rate mode : Constant
Bit rate : 320 Kbps
Channel(s) : 2 channels
Channel positions : Front: L R
Sampling rate : 48.0 KHz
Bit depth : 16 bits
Stream size : 207 MiB (15%)
Alignment : Split accross interleaves
Interleave, duration : 42 ms (1.00 video frame)
Interleave, preload duration : 500 ms

Audio #2
ID : 2
Format : AC-3
Format/Info : Audio Coding 3
Mode extension : CM (complete main)
Codec ID : 2000
Duration : 1h 30mn
Bit rate mode : Constant
Bit rate : 320 Kbps
Channel(s) : 2 channels
Channel positions : Front: L R
Sampling rate : 48.0 KHz
Bit depth : 16 bits
Stream size : 207 MiB (15%)
Alignment : Split accross interleaves
Interleave, duration : 42 ms (1.00 video frame)
Interleave, preload duration : 500 ms





( Tags )





People also Search for: Trasgredire - Cheeky - Tinto Brass (2000) Tra(sgre)dire [XviD - Italian English

  • • 1080p Trasgredire - Cheeky - Tinto Brass (2000) Tra(sgre)dire [XviD - Italian English Torrent
  • • 720p Trasgredire - Cheeky - Tinto Brass (2000) Tra(sgre)dire [XviD - Italian English DVDRip
  • • HD Trasgredire - Cheeky - Tinto Brass (2000) Tra(sgre)dire [XviD - Italian English
  • • Dvix/Xvid Trasgredire - Cheeky - Tinto Brass (2000) Tra(sgre)dire [XviD - Italian English
  • • Blu-ray Trasgredire - Cheeky - Tinto Brass (2000) Tra(sgre)dire [XviD - Italian English

Recently Added Torrents

torrent name size age seed leech
644.31 MB 10 minutes 164 130
206.99 MB 10 minutes 567 420
2.42 GB 10 minutes 718 84
3.91 GB 10 minutes 106 179
2.85 GB 10 minutes 118 216