Loading...
Loading...

The Simpsons - S29E02 - Springfield Splendor (1080p WEB-DL x265 HEVC 10bit EAC3 5 1 RZeroX)

seeders: 169
leechers: 343
The Simpsons - S29E02 - Springfield Splendor (1080p WEB-DL x265 HEVC 10bit EAC3 5 1 RZeroX) magnet link

Info Hash: 6E2C5831146E064400141D10EA1A96A7602BF69F
Loading...
The Simpsons - S29E02 - Springfield Splendor (1080p WEB-DL x265 HEVC 10bit EAC3 5 1 RZeroX)
  • Downloads 49
  • Added 3 months
  • Quality Good
  • Torrent ID 72147637091
  • Note if .torrent file deleted click magnet below
  • Download Magnet
Torrent Info:
• You can easily download The Simpsons - S29E02 - Springfield Splendor (1080p WEB-DL x265 HEVC 10bit EAC3 5 1 RZeroX) Torerent to your PC, MAC, Tablet, Mobile or any other devices.
• HD Quality Torrent The Simpsons - S29E02 - Springfield Splendor (1080p WEB-DL x265 HEVC 10bit EAC3 5 1 RZeroX)
• Your Support Keep WatchTorrentMovie.Us alive.

Torrent Files

The Simpsons - S29E02 - Springfield Splendor (1080p WEB-DL x265 HEVC 10bit EAC3 5 1 RZeroX) (Size: 621.9 MB)
  The Simpsons - S29E02 - Springfield Splendor (1080p WEB-DL x265 HEVC 10bit EAC3 5 1 RZeroX) 621.9 MB

Torrent Description





Media Information

Code:

Format                         : Matroska
Format version                 : Version 4 / Version 2
File size                      : 622 MiB
Duration                       : 21 min 55 s
Overall bit rate               : 3 965 kb/s
Encoded date                   : UTC 2017-10-11 21:10:20
Writing application            : mkvmerge v16.0.0 ('Protest') 64-bit
Writing library                : libebml v1.3.5 + libmatroska v1.4.8

Video
ID                             : 1
Format                         : HEVC
Format/Info                    : High Efficiency Video Coding
Format profile                 : Main [email protected]@Main
Codec ID                       : V_MPEGH/ISO/HEVC
Duration                       : 21 min 55 s
Bit rate                       : 3 323 kb/s
Width                          : 1 920 pixels
Height                         : 1 080 pixels
Display aspect ratio           : 16:9
Frame rate mode                : Constant
Frame rate                     : 23.976 (24000/1001) FPS
Color space                    : YUV
Chroma subsampling             : 4:2:0
Bit depth                      : 10 bits
Bits/(Pixel*Frame)             : 0.067
Stream size                    : 521 MiB (84%)
Writing library                : x265 2.5+27-0e168bdeb48b:[Windows][GCC 7.2.0][64 bit] 10bit
Encoding settings              : cpuid=1173503 / frame-threads=3 / numa-pools=12 / wpp / no-pmode / no-pme / no-psnr / no-ssim / log-level=2 / input-csp=1 / input-res=1920x1080 / interlace=0 / total-frames=31543 / level-idc=0 / high-tier=1 / uhd-bd=0 / ref=4 / no-allow-non-conformance / no-repeat-headers / annexb / no-aud / no-hrd / info / hash=0 / no-temporal-layers / open-gop / min-keyint=23 / keyint=250 / bframes=8 / b-adapt=2 / b-pyramid / bframe-bias=0 / rc-lookahead=80 / lookahead-slices=4 / scenecut=40 / no-intra-refresh / ctu=64 / min-cu-size=8 / no-rect / no-amp / max-tu-size=32 / tu-inter-depth=1 / tu-intra-depth=1 / limit-tu=0 / rdoq-level=2 / dynamic-rd=0.00 / no-ssim-rd / signhide / no-tskip / nr-intra=0 / nr-inter=0 / no-constrained-intra / strong-intra-smoothing / max-merge=3 / limit-refs=3 / limit-modes / me=3 / subme=5 / merange=57 / temporal-mvp / weightp / weightb / no-analyze-data-pics / deblock=-1:-1 / sao / no-sao-non-deblock / rd=4 / no-early-skip / rskip / no-fast-intra / no-tskip-fast / no-cu-lossless / no-b-intra / no-splitrd-skip / rdpenalty=0 / psy-rd=1.00 / psy-rdoq=1.00 / no-rd-refine / analysis-reuse-mode=0 / no-lossless / cbqpoffs=0 / crqpoffs=0 / rc=crf / crf=22.0 / qcomp=0.60 / qpstep=4 / stats-write=0 / stats-read=0 / ipratio=1.40 / pbratio=1.30 / aq-mode=3 / aq-strength=1.00 / cutree / zone-count=0 / no-strict-cbr / qg-size=32 / no-rc-grain / qpmax=69 / qpmin=0 / no-const-vbv / sar=0 / overscan=0 / videoformat=5 / range=0 / colorprim=2 / transfer=2 / colormatrix=2 / chromaloc=0 / display-window=0 / max-cll=0,0 / min-luma=0 / max-luma=1023 / log2-max-poc-lsb=8 / vui-timing-info / vui-hrd-info / slices=1 / opt-qp-pps / opt-ref-list-length-pps / no-multi-pass-opt-rps / scenecut-bias=0.00 / no-opt-cu-delta-qp / aq-motion / no-hdr / no-hdr-opt / no-dhdr10-opt / analysis-reuse-level=5 / scale-factor=0 / refine-intra=0 / refine-inter=0 / refine-mv=0 / no-limit-sao / ctu-info=0
Default                        : Yes
Forced                         : No

Audio
ID                             : 2
Format                         : E-AC-3
Format/Info                    : Enhanced Audio Coding 3
Format settings, Endianness    : Big
Codec ID                       : A_EAC3
Duration                       : 21 min 55 s
Bit rate mode                  : Constant
Bit rate                       : 640 kb/s
Channel(s)                     : 6 channels
Channel positions              : Front: L C R, Side: L R, LFE
Sampling rate                  : 48.0 kHz
Frame rate                     : 187.500 FPS (256 SPF)
Compression mode               : Lossy
Stream size                    : 100 MiB (16%)
Language                       : English
Service kind                   : Complete Main
Default                        : No
Forced                         : No

Text
ID                             : 3
Format                         : UTF-8
Codec ID                       : S_TEXT/UTF8
Codec ID/Info                  : UTF-8 Plain Text
Duration                       : 21 min 42 s
Bit rate                       : 88 b/s
Count of elements              : 508
Stream size                    : 14.0 KiB (0%)
Language                       : English
Default                        : No
Forced                         : No




Source Information

Code:

Release :   The Simpsons S29E02 1080p AMZN WEB-DL DD+ 5.1 H.264-SiGMA
Complete name : The.Simpsons.S29E02.Springfield.Splendor.1080p.AMZN.WEB-DL.DD+5.1.H.264-SiGMA.mkv
File size : 606 MiB
Duration : 21 min 55 s
Overall bit rate mode : Variable
Overall bit rate : 3 866 kb/s  






( Tags )





People also Search for: The Simpsons - S29E02 - Springfield Splendor (1080p WEB-DL x265 HEVC 10bit EAC3

  • • 1080p The Simpsons - S29E02 - Springfield Splendor (1080p WEB-DL x265 HEVC 10bit EAC3 Torrent
  • • 720p The Simpsons - S29E02 - Springfield Splendor (1080p WEB-DL x265 HEVC 10bit EAC3 DVDRip
  • • HD The Simpsons - S29E02 - Springfield Splendor (1080p WEB-DL x265 HEVC 10bit EAC3
  • • Dvix/Xvid The Simpsons - S29E02 - Springfield Splendor (1080p WEB-DL x265 HEVC 10bit EAC3
  • • Blu-ray The Simpsons - S29E02 - Springfield Splendor (1080p WEB-DL x265 HEVC 10bit EAC3

Recently Added Torrents

torrent name size age seed leech
644.31 MB 25 minutes 99 132
206.99 MB 25 minutes 572 76
2.42 GB 25 minutes 674 349
3.91 GB 25 minutes 366 135
2.85 GB 25 minutes 61 270