Loading...
Loading...

Lore.S01E06.720p.WEB.h264-CONVOY

seeders: 317
leechers: 267
Lore.S01E06.720p.WEB.h264-CONVOY magnet link

Info Hash: C0378A1CF1768D281C2BDB34A20BE153DF9174FA
Loading...
Lore.S01E06.720p.WEB.h264-CONVOY
  • Downloads 39
  • Added 3 months
  • Quality Good
  • Torrent ID 72147636949
  • Note if .torrent file deleted click magnet below
  • Download Magnet
Torrent Info:
• You can easily download Lore.S01E06.720p.WEB.h264-CONVOY Torerent to your PC, MAC, Tablet, Mobile or any other devices.
• HD Quality Torrent Lore.S01E06.720p.WEB.h264-CONVOY
• Your Support Keep WatchTorrentMovie.Us alive.

Torrent Files

Lore.S01E06.720p.WEB.h264-CONVOY (Size: 852.42 MB)
  Lore.S01E06.720p.WEB.h264-CONVOY 852.42 MB

Torrent Description


Lore.S01E06.720p.WEB.h264-CONVOY



Complete name                            : lore.s01e06.720p.web.h264-convoy.mkv
Format                                   : Matroska
Format version                           : Version 4 / Version 2
File size                                : 852 MiB
Duration                                 : 40 min 42 s
Overall bit rate mode                    : Variable
Overall bit rate                         : 2 927 kb/s
Encoded date                             : UTC 2017-10-12 21:18:58
Writing application                      : mkvmerge v11.0.0 ('Alive') 64bit
Writing library                          : libebml v1.3.4 + libmatroska v1.4.5

Video
ID                                       : 1
Format                                   : AVC
Format/Info                              : Advanced Video Codec
Format profile                           :
Format settings, CABAC                   : Yes
Format settings, ReFrames                : 5 frames
Codec ID                                 : V_MPEG4/ISO/AVC
Duration                                 : 40 min 42 s
Bit rate mode                            : Variable
Bit rate                                 : 2 286 kb/s
Maximum bit rate                         : 4 500 kb/s
Width                                    : 1 280 pixels
Height                                   : 720 pixels
Display aspect ratio                     : 16:9
Frame rate mode                          : Constant
Frame rate                               : 23.976 (24000/1001) FPS
Color space                              : YUV
Chroma subsampling                       : 4:2:0
Bit depth                                : 8 bits
Scan type                                : Progressive
Bits/(Pixel*Frame)                       : 0.103
Stream size                              : 666 MiB (78%)
Default                                  : Yes
Forced                                   : No
Color range                              : Limited
Color primaries                          : BT.709
Transfer characteristics                 : BT.709
Matrix coefficients                      : BT.709

Audio
ID                                       : 2
Format                                   : E-AC-3
Format/Info                              : Enhanced Audio Coding 3
Format settings, Endianness              : Big
Codec ID                                 : A_EAC3
Duration                                 : 40 min 42 s
Bit rate mode                            : Constant
Bit rate                                 : 640 kb/s
Channel(s)                               : 6 channels
Channel positions                        : Front: L C R, Side: L R, LFE
Sampling rate                            : 48.0 kHz
Frame rate                               : 187.500 FPS (256 spf)
Compression mode                         : Lossy
Stream size                              : 186 MiB (22%)
Language                                 : English
Service kind                             : Complete Main
Default                                  : Yes
Forced                                   : No

Text
ID                                       : 3
Format                                   : UTF-8
Codec ID                                 : S_TEXT/UTF8
Codec ID/Info                            : UTF-8 Plain Text
Duration                                 : 39 min 6 s
Bit rate                                 : 58 b/s
Count of elements                        : 535
Stream size                              : 16.6 KiB (0%)
Title                                    : English
Language                                 : English
Default                                  : No
Forced                                   : No






Click To View Screenshot

Click To View Screenshot

Click To View Screenshot

( Tags )





People also Search for: Lore.S01E06.720p.WEB.h264-CONVOY

  • • 1080p Lore.S01E06.720p.WEB.h264-CONVOY Torrent
  • • 720p Lore.S01E06.720p.WEB.h264-CONVOY DVDRip
  • • HD Lore.S01E06.720p.WEB.h264-CONVOY
  • • Dvix/Xvid Lore.S01E06.720p.WEB.h264-CONVOY
  • • Blu-ray Lore.S01E06.720p.WEB.h264-CONVOY

Recently Added Torrents

torrent name size age seed leech
247.81 MB 19 minutes 14 151
380.39 MB 19 minutes 243 120
309.15 MB 19 minutes 225 26
7.77 MB 19 minutes 350 413
Celebreties- XXX
Posted by   Shilpa143  in  Adult
131.52 MB 19 minutes 444 393